http://i030.radikal.ru/1108/e9/32f469456b34.jpg
«Ране́тки» — российская музыкальная группа. Лауреаты конкурса «Пять звёзд» и «Eurosonic 2008», обладательницы двух Премий «Муз-ТВ 2009» в номинациях Лучший альбом и Лучший саундтрек. Также группа известна своими саундтреками к сериалу «Кадетство». С марта 2008 по 2010 года участницы группы «Ранетки» были героинями одноимённого сериала на телеканале «СТС». . В настоящее время группа активно записывает свой новый, пятый альбом.
Источник: http://ru.wikipedia.org/wiki/Ранетки_(группа)

раскадировка

http://i032.radikal.ru/1108/8b/054d9b29b729.jpg

Одно и тоже видео в разных форматах, соответственно, качество картинки тоже разное.
Стянуто с сети, якобы как Home Video с украденной камеры. Содержимое не нарушает Правила Форума, да, и на эротику не особо тянет.

*.flv


Оригинал.

MediaInfo

General
Format                           : Flash Video
File size                        : 7.59 MiB
Duration                         : 2mn 45s
Overall bit rate                 : 384 Kbps
httphostheader                   : v4.lscache1.c.youtube.com

Video
Format                           : AVC
Format/Info                      : Advanced Video Codec
Format profile                   : Main@L1.3
Format settings, CABAC           : Yes
Format settings, ReFrames        : 3 frames
Format settings, GOP             : M=1, N=50
Codec ID                         : 7
Duration                         : 2mn 45s
Bit rate                         : 284 Kbps
Width                            : 322 pixels
Height                           : 182 pixels
Display aspect ratio             : 16:9
Frame rate mode                  : Constant
Frame rate                       : 25.000 fps
Color space                      : YUV
Chroma subsampling               : 4:2:0
Bit depth                        : 8 bits
Scan type                        : Progressive
Bits/(Pixel*Frame)               : 0.194
Stream size                      : 5.59 MiB (74%)

Audio
Format                           : AAC
Format/Info                      : Advanced Audio Codec
Format profile                   : LC
Codec ID                         : 10
Duration                         : 2mn 45s
Bit rate                         : 93.1 Kbps
Channel(s)                       : 2 channels
Channel positions                : Front: L R
Sampling rate                    : 44.1 KHz
Compression mode                 : Lossy
Stream size                      : 1.84 MiB (24%)

http://www.megaupload.com/?d=BZ6LJMWB

*.mp4
MediaInfo

General
Format                           : MPEG-4
Format profile                   : Base Media
Codec ID                         : isom
File size                        : 22.9 MiB
Duration                         : 2mn 45s
Overall bit rate                 : 1 162 Kbps

Video
ID                               : 1
Format                           : MPEG-4 Visual
Format profile                   : Simple@L1
Format settings, BVOP            : No
Format settings, QPel            : No
Format settings, GMC             : No warppoints
Format settings, Matrix          : Default (H.263)
Codec ID                         : 20
Duration                         : 2mn 45s
Bit rate mode                    : Variable
Bit rate                         : 1 032 Kbps
Width                            : 720 pixels
Height                           : 480 pixels
Display aspect ratio             : 16:9
Frame rate mode                  : Constant
Frame rate                       : 29.970 fps
Standard                         : NTSC
Color space                      : YUV
Chroma subsampling               : 4:2:0
Bit depth                        : 8 bits
Scan type                        : Progressive
Compression mode                 : Lossy
Bits/(Pixel*Frame)               : 0.100
Stream size                      : 20.3 MiB (89%)
Writing library                  : Lavc51.54.0

Audio
ID                               : 2
Format                           : AAC
Format/Info                      : Advanced Audio Codec
Format profile                   : LC
Codec ID                         : 40
Duration                         : 2mn 45s
Bit rate mode                    : Variable
Bit rate                         : 128 Kbps
Channel(s)                       : 2 channels
Channel positions                : Front: L R
Sampling rate                    : 44.1 KHz
Compression mode                 : Lossy
Stream size                      : 2.52 MiB (11%)

http://www.megaupload.com/?d=BUQ0BZI3

*.mpg
MediaInfo

General
Format                           : MPEG-PS
File size                        : 20.4 MiB
Duration                         : 2mn 45s
Overall bit rate                 : 1 035 Kbps

Video
ID                               : 224 (0xE0)
Format                           : MPEG Video
Format version                   : Version 2
Format profile                   : Main@Main
Format settings, BVOP            : No
Format settings, Matrix          : Default
Duration                         : 2mn 45s
Bit rate mode                    : Variable
Bit rate                         : 886 Kbps
Nominal bit rate                 : 9 000 Kbps
Width                            : 720 pixels
Height                           : 480 pixels
Display aspect ratio             : 16:9
Frame rate                       : 29.970 fps
Standard                         : NTSC
Color space                      : YUV
Chroma subsampling               : 4:2:0
Bit depth                        : 8 bits
Scan type                        : Progressive
Compression mode                 : Lossy
Bits/(Pixel*Frame)               : 0.086
Stream size                      : 17.4 MiB (85%)

Audio
ID                               : 192 (0xC0)
Format                           : MPEG Audio
Format version                   : Version 1
Format profile                   : Layer 2
Duration                         : 2mn 45s
Bit rate mode                    : Constant
Bit rate                         : 128 Kbps
Channel(s)                       : 2 channels
Sampling rate                    : 44.1 KHz
Compression mode                 : Lossy
Stream size                      : 2.53 MiB (12%)

http://www.megaupload.com/?d=2EFA70RN